The Adventures Of Tintin (2011) 720p BRRip x264 [Dual Audio] [Hindi+English]--prisak~~{HKRG}

seeders: 2
leechers: 4
Added on Mar 30, 2012 by prisak18.91K in Movies > Highres Movies
Torrent verified. Downloaded 92 times.

download
The Adventures Of Tintin (2011) 720p BRRip x264 [Dual Audio] [Hindi+English]--prisak~~{HKRG} (Size: 947.16 MB)
  The.Adventures.Of.Tintin.(2011).720p.BRRip.x264.[Dual Audio].[Hindi+English](Screens)--prisak~~{HKRG}
  The.Adventures.Of.Tintin.(2011).720p.BRRip.x264.[Dual Audio].[Hindi+English]--prisak~~{HKRG}.mkv 945.56 MB
  torrent.pdf 21.2 KB
  The.Adventures.Of.Tintin.(2011).720p.BRRip.x264.[Dual... 7.62 KB
  Torrent downloaded from extratorrent.com.txt 1.03 KB
  hkrg.txt 55 bytes

Description

image
image
image
image
image
Release Title: The.Adventures.Of.Tintin.(2011).720p.BRRip.x264.[Dual Audio].[Hindi+English]--prisak~~{HKRG}
Encode date: UTC 2012-03-29 02:01:05
image
TMDB Link: http://www.themoviedb.org/movie/17578
IMDB Link: http://www.imdb.com/title/tt0983193
Storyline: Intrepid young reporter Tintin and his loyal dog Snowy are thrust into a world of high adventure when they discover a ship carrying an explosive secret. As Tintin is drawn into a centuries-old mystery, Ivan Ivanovitch Sakharine suspects him of stealing a priceless treasure. Tintin and Snowy, with the help of salty, cantankerous Captain Haddock, and bumbling detectives Thompson & Thomson, travel half the world, one step ahead of their enemies as Tintin endeavors to find The Unicorn, a sunken ship that may hold a vast fortune, but also an ancient curse.
Genre: Adventure | Animation | Action | Family
Release date: 21/12/2011
image
Daniel Craig ... Red Rackham
Simon Pegg ... Inspector Thompson
Cary Elwes ... Pilot
Jamie Bell ... Tintin
Andy Serkis ... Captain Haddock
Nick Frost ... Thomson
Mackenzie Crook ... Ernie
Tony Curran ... Lt. Delcourt
Toby Jones ... Silk
Daniel Mays ... Allan
Sebastian Roché ... Pedro
Phillip Rhys ... Co-Pilot
Mark Ivanir ... Afgar Outpost Soldier
Gad Elmaleh ... Ben Salaad
Jacquie Barnbrook ... Lady in the Phonebox / Old Lady
image
Format: Matroska
File Size: 946 MiB
Overall Bit Rate: 1 237 Kbps
Duration: 1h 46mn
Subtitles: NO
Encoder: prisak
image
Container: V_MPEG4/ISO/AVC
Video Codec Type: x264
Video bitrate: 1 109 Kbps
Encoding type: 2 Pass TURBO 1ST PASS
Resolution: 1280 X 544 pixels
Aspect ratio(AR): 2.35:1
Quality Factor(QF): 0.066
Frame Rate: 23.976 fps
Source: BDRip SnowDonThanks!!
image
Audio #: English
ID: 2
Format : AC-3
Format/Info: Audio Coding 3
Codec ID : A_AC3
Duration: 1h 46mn
Bit rate mode : Constant
Bit rate : 64.0 Kbps
Channel(s) : 2 channels
Channel positions : Front: L R
Sampling rate: 48.0 KHz
Stream size : 48.9 MiB (5%)
Title : prisak
Audio #: Hindi
ID : 3
Format : AC-3
Format/Info : Audio Coding 3
Codec ID : A_AC3
Duration: 1h 46mn
Bit rate mode : Constant
Bit rate: 64.0 Kbps
Channel(s) : 2 channels
Channel positions : Front: L R
Sampling rate: 48.0 KHz
Stream size: 48.9 MiB (5%)
Title : prisak
image
image
image
image
image
image
image
image
image
image
image
image

Related Torrents

torrent name size files age seed leech

Sharing Widget


Download torrent
947.16 MB
seeders:2
leechers:4
The Adventures Of Tintin (2011) 720p BRRip x264 [Dual Audio] [Hindi+English]--prisak~~{HKRG}

Trackers

tracker name Status checked seeders leechers downloads
udp://tracker.istole.it:80/announce
active 10 Sep 2014 2 4 10
udp://tracker.publicbt.com:80/announce
active 10 Sep 2014 0 0 10
udp://tracker.openbittorrent.com:80/announce
active 10 Sep 2014 1 2 10
udp://open.demonii.com:1337/announce
active 10 Sep 2014 0 1 92
udp://tracker.1337x.org:80/announce
outdated 26 Aug 2014 - - -
udp://fr33domtracker.h33t.com:3310/announce
deleted 26 Aug 2014 - - -
µTorrent compatible trackers list

Locations

name
KickassTorrents
Torrent hash: 65B63C66139BAC76C53064EE523C33910B6A3C33

All Comments

audio
9/10
video
9/10
please, leave only comments related to that torrent
or sign-in
0
jdansari235 • 05 September 2014, 12:10 Show comment
audio: 8video: 9
AUDIO IS WORKING ON VLC ONLY
0
anonymous • 05 September 2014, 05:57 Show comment
Audio is not working
0
FanaticSpidey2069 • 28 July 2014, 10:12 Show comment
audio: 10video: 8
need for speed for downloading
0
anonymous • 02 February 2014, 20:17 Show comment
seeed plz
0
Hollywood-Fan1712 • 13 January 2014, 12:53
torrent downloaded
Show comment
audio: 10video: 10
Wow Good Share..
Thanks..
0
habibhabib1872 • 05 January 2014, 05:21
torrent downloaded
Show comment
audio: 10video: 9
good thnxs
0
rahul070590330 • 16 November 2013, 11:10
torrent downloaded
Show comment
audio: 9video: 9
0
kpal123456819 • 23 September 2013, 16:12
torrent downloaded
Show comment
audio: 10video: 9
nice....
0
anonymous • 15 July 2013, 10:53 Show comment
nice
0
anonymous • 09 May 2013, 11:48 Show comment
audio: 10video: 10
gud movie should be download
Show More

User Opinions

Adwarb9104, habibhabib1872, Sahir94919797, Parmvir_Maan795, rizwan27309, Mayan007189, manish_sanghani176, titanss157, Silvermatrix128, assvi20 ... And 56 more
Report a bug