Olympus Has Fallen (2013) 1080p AC3 M2TS

Removed by the request of copyright owner, 1 year ago
Added on Jun 28, 2013 in Movies
Torrent verified. Downloaded 165 times.

Available in versions: 1080p720pBDRipHDRiPDVDDVDRipCam
Olympus Has Fallen (2013) 1080p AC3 M2TS (Size: 3.99 GB)
  Olympus Has Fallen (2013) 1080p AC3 M2TS.m2ts 3.99 GB
  Torrent downloaded from extratorrent.com.txt 353 bytes

Description




Disgraced former Presidential guard Mike Banning finds himself trapped inside the White House in the wake of a terrorist attack; using his inside knowledge, Banning works with national security to rescue the President from his kidnappers.


http://www.imdb.com/title/tt2302755/?ref_=sr_1


General

ID : 1 (0x1)

Complete name : C:\Users\piphead\Documents\Torrents to Upload\Olympus Has Fallen (2013) 1080p AC3 M2TS\Olympus Has Fallen (2013) 1080p AC3 M2TS.m2ts

Format : BDAV

Format/Info : Blu-ray Video

File size : 3.99 GiB

Duration : 1h 59mn

Overall bit rate mode : Variable

Overall bit rate : 4 793 Kbps

Maximum Overall bit rate : 35.5 Mbps
Video

ID : 4113 (0x1011)

Menu ID : 1 (0x1)

Format : AVC

Format/Info : Advanced Video Codec

Format profile : High@L4.1

Format settings, CABAC : Yes

Format settings, ReFrames : 3 frames

Codec ID : 27

Duration : 1h 59mn

Bit rate mode : Variable

Bit rate : 3 854 Kbps

Maximum bit rate : 24.0 Mbps

Width : 1 920 pixels

Height : 1 080 pixels

Display aspect ratio : 16:9

Frame rate : 24.000 fps

Color space : YUV

Chroma subsampling : 4:2:0

Bit depth : 8 bits

Scan type : Progressive

Bits/(Pixel*Frame) : 0.077

Stream size : 3.29 GiB (83%)

Writing library : x264 core 120 r2120 0c7dab9

Encoding settings : cabac=1 / ref=3 / deblock=1:0:0 / analyse=0x3:0x113 / me=umh / subme=7 / psy=1 / psy_rd=1.00:0.25 / mixed_ref=1 / me_range=16 / chroma_me=1 / trellis=1 / 8x8dct=1 / cqm=0 / deadzone=21,11 / fast_pskip=1 / chroma_qp_offset=-4 / threads=6 / sliced_threads=0 / slices=4 / nr=0 / decimate=1 / interlaced=0 / bluray_compat=1 / constrained_intra=0 / bframes=3 / b_pyramid=1 / b_adapt=1 / b_bias=0 / direct=3 / weightb=1 / open_gop=1 / weightp=0 / keyint=24 / keyint_min=2 / scenecut=40 / intra_refresh=0 / rc_lookahead=24 / rc=2pass / mbtree=1 / bitrate=3854 / ratetol=1.0 / qcomp=0.60 / qpmin=0 / qpmax=69 / qpstep=4 / cplxblur=20.0 / qblur=0.5 / vbv_maxrate=24000 / vbv_bufsize=24000 / nal_hrd=vbr / ip_ratio=1.40 / aq=1:1.00
Audio

ID : 4352 (0x1100)

Menu ID : 1 (0x1)

Format : AC-3

Format/Info : Audio Coding 3

Mode extension : CM (complete main)

Format settings, Endianness : Big

Codec ID : 129

Duration : 1h 59mn

Bit rate mode : Constant

Bit rate : 640 Kbps

Channel(s) : 6 channels

Channel positions : Front: L C R, Side: L R, LFE

Sampling rate : 48.0 KHz

Bit depth : 16 bits

Compression mode : Lossy

Stream size : 545 MiB (13%)

Language : English

Related Torrents

torrent name size files age seed leech

Trackers

tracker name Status checked seeders leechers downloads
udp://9.rarbg.com:2710/announce
outdated 21 Jul 2013 - - -
udp://tracker.openbittorrent.com:80/announce
outdated 21 Jul 2013 - - -
udp://tracker.publicbt.com:80/announce
outdated 21 Jul 2013 - - -
udp://tracker.istole.it:80/announce
outdated 21 Jul 2013 - - -
udp://fr33dom.h33t.com:3310/announce
deleted 21 Jul 2013 - - -
udp://fr33domtracker.h33t.com:3310/announce
deleted 21 Jul 2013 - - -
udp://www.h33t.com:3310/announce
deleted 21 Jul 2013 - - -
udp://11.rarbg.com:80/announce
private 21 Jul 2013 24 30 10
µTorrent compatible trackers list

Locations

name
Torrent hash: AF1FE1CAB6898FC73D4890DF1BBB4BBBA654C3F0

All Comments

audio
0/10
video
0/10
please, leave only comments related to that torrent
or sign-in
Report a bug