Harry Potter I Komnata Tajemnic - Harry Potter and the Chamber of Secrets (2002)[720p.BRRip.x264.Ac3][Dual.Audio][Dubbing i Napisy PL]

seeders: 4
leechers: 1
Added on Mar 19, 2013 by zapalka11.83K in Movies > Highres Movies
Torrent verified. Downloaded 10 times.

download
Harry Potter I Komnata Tajemnic - Harry Potter and the Chamber of Secrets... (Size: 5.17 GB)
  BluRAY
  Harry Potter I Komnata Tajemnic - Harry Potter and the Chamber of Secrets... 5.17 GB
  Open.txt 138 bytes

Description

Harry Potter I Komnata Tajemnic - Harry Potter and the Chamber of Secrets (2002)[720p.BRRip.x264.Ac3][Dual.Audio][Dubbing i Napisy PL]
Reżyseria: Chris Columbus
Scenariusz: Steven Kloves
Zdjęcia: Roger Pratt
Muzyka: John Williams
Na podstawie powieści J.K Rowling
Produkcja: Niemcy, USA, Wielka Brytania
Gatunek: familijny, fantasy, przygodowy
Premiera: 3 listopad 2002 (świat), 1 styczeń 203 (polska)
Czas trwania: 155 minut

Opis:
Harry powraca do Hogwartu, aby ponownie zmierzyć się z niebezpieczeństwem tym razem
zagrażającym także jego najlepszej przyjaciółce.
Podczas drugiego roku pobytu w Szkole Magii i Czarodziejststwa młody Potter
spotyka starych wrogów, poznaje nowego nauczyciela, odkrywa w sobie nowe zdolności,
unika śmierci z rąk domowego skrzata chcącego za wszelką cenę uratować mu życie
i wraz z dwójką swoich przyjaciół: Ronem i Hermioną znów udaje mu się rozwiązać
trudną zagadkę.

Obsada:
Daniel Radcliffe: Harry James Potter
Rupert Grint: Ronald "Ron" Weasley
Emma Watson: Hermione Granger
Kenneth Branagh: Gilderoy Lockhart
Robbie Coltrane: Rubeus Hagrid
Richard Harris: Albus Dumbledore
Alan Rickman: Severus Snape
Maggie Smith: Minerva McGonagall
John Cleese: Bezgłowy Nick
Matthew Lewis: Neville Longbottom
Shirley Henderson: Płaczaca MyrtleGeneral:
Unique ID : 255127173289445537583515482136684032702 (0xBFEFB4CDE1A600179414537DE47872BE)
Complete name : Harry Potter and the Chamber of Secrets (2002)[720p.BRRip.x264.Ac3][Dual.Audio][Dubbing i Napisy PL].mkv
Format : Matroska
Format version : Version 4 / Version 2
File size : 5.17 GiB
Duration : 2h 40mn
Overall bit rate mode : Variable
Overall bit rate : 4 598 Kbps
Movie name : 00067
Encoded date : UTC 2013-03-10 17:42:25
Writing application : mkvmerge v6.1.0 ('Old Devil') built on Mar 2 2013 14:32:37
Writing library : libebml v1.3.0 + libmatroska v1.4.0

Video
ID : 1
Format : AVC
Format/Info : Advanced Video Codec
Format profile : High@L4.1
Format settings, CABAC : Yes
Format settings, ReFrames : 2 frames
Format settings, GOP : M=3, N=15
Codec ID : V_MPEG4/ISO/AVC
Duration : 2h 40mn
Bit rate mode : Variable
Bit rate : 3 226 Kbps
Maximum bit rate : 4 972 Kbps
Width : 1 280 pixels
Height : 720 pixels
Display aspect ratio : 16:9
Frame rate : 23.976 fps
Color space : YUV
Chroma subsampling : 4:2:0
Bit depth : 8 bits
Scan type : Progressive
Bits/(Pixel*Frame) : 0.146
Stream size : 3.63 GiB (70%)
Language : English

Audio #1
ID : 2
Format : AC-3
Format/Info : Audio Coding 3
Mode extension : CM (complete main)
Codec ID : A_AC3
Duration : 2h 40mn
Bit rate mode : Constant
Bit rate : 640 Kbps
Channel(s) : 6 channels
Channel positions : Front: L C R, Side: L R, LFE
Sampling rate : 48.0 KHz
Bit depth : 16 bits
Compression mode : Lossy
Stream size : 737 MiB (14%)
Language : Polish

Audio #2
ID : 3
Format : AC-3
Format/Info : Audio Coding 3
Mode extension : CM (complete main)
Codec ID : A_AC3
Duration : 2h 40mn
Bit rate mode : Constant
Bit rate : 640 Kbps
Channel(s) : 6 channels
Channel positions : Front: L C R, Side: L R, LFE
Sampling rate : 48.0 KHz
Bit depth : 16 bits
Compression mode : Lossy
Stream size : 737 MiB (14%)
Language : English

Text #1
ID : 4
Format : UTF-8
Codec ID : S_TEXT/UTF8
Codec ID/Info : UTF-8 Plain Text
Language : Polish

Text #2
ID : 5
Format : UTF-8
Codec ID : S_TEXT/UTF8
Codec ID/Info : UTF-8 Plain Text
Language : English

Related Torrents

torrent name size files age seed leech

Sharing Widget


Download torrent
5.17 GB
seeders:4
leechers:1
Harry Potter I Komnata Tajemnic - Harry Potter and the Chamber of Secrets (2002)[720p.BRRip.x264.Ac3][Dual.Audio][Dubbing i Napisy PL]

Trackers

tracker name Status checked seeders leechers downloads
udp://tracker.publicbt.com:80/announce
outdated 12 Dec 2013 - - -
http://tracker.torrenty.org:6969/announce
outdated 12 Dec 2013 - - -
udp://tracker.openbittorrent.com:80/announce
outdated 12 Dec 2013 - - -
udp://tracker.istole.it:80/announce
outdated 12 Dec 2013 - - -
udp://tracker.ccc.de:80/announce
deleted 12 Dec 2013 - - -
udp://fr33domtracker.h33t.com:3310/announce
deleted 12 Dec 2013 - - -
http://tracker.bitreactor.to:2710/announce
private 12 Dec 2013 - - -
udp://tracker.yify-torrents.com:80/announce
pending 12 Dec 2013 4 1 10
http://i.bandito.org/announce.php
pending 12 Dec 2013 0 0 0
http://tracker.yify-torrents.com/announce
pending 12 Dec 2013 0 0 0
µTorrent compatible trackers list

Locations

name
KickassTorrents
Torrent hash: 7A9181F4F3B56AFC3D8DF42F6B9E4B81194C4296

All Comments

audio
0/10
video
0/10
please, leave only comments related to that torrent
or sign-in

User Opinions

Report a bug