Chattahoochee 1989.DVDRip.x264 . NVEE

seeders: 5
leechers: 1
Added on Apr 13, 2013 by .NVEE10617 in Movies
Torrent verified. Downloaded 10 times.

download
Available in versions: DVDRip
Chattahoochee 1989.DVDRip.x264 . NVEE (Size: 2.16 GB)
  Chattahoochee 1989.DVDRip.x264 . NVEE.mp4 2.16 GB
  chattahoochee-movie-poster-1990-1020382625.jpg 118.2 KB
  1990-chattahoochee-poster1.jpg 106.34 KB
  MediaInfo.txt 4.07 KB

Description

image

FULL_INFOS

100% SYNCED >>> GUARANTEED

NO SUBTITLES AVAILABLE

Source : DVD

Spoken Language : English

Use Crop : 16:9

General

Complete name : Chattahoochee 1989.DVDRip.x264 . NVEE.mp4
Format : MPEG-4
Format profile : Base Media
Codec ID : isom
File size : 2.16 GiB
Duration : 1h 33mn
Overall bit rate : 3 296 Kbps
Encoded date : UTC 2013-04-11 13:23:14
Tagged date : UTC 2013-04-11 13:23:14

Video

ID : 1
Format : AVC
Format/Info : Advanced Video Codec
Format profile : High@L3.0
Format settings, CABAC : Yes
Format settings, ReFrames : 4 frames
Codec ID : avc1
Codec ID/Info : Advanced Video Coding
Duration : 1h 33mn
Bit rate : 3 070 Kbps
Maximum bit rate : 12.4 Mbps
Width : 702 pixels
Height : 576 pixels
Display aspect ratio : 4:3
Frame rate mode : Constant
Frame rate : 25.000 fps
Color space : YUV
Chroma subsampling : 4:2:0
Bit depth : 8 bits
Scan type : Progressive
Bits/(Pixel*Frame) : 0.304
Stream size : 2.01 GiB (93%)
Writing library : x264 core 130 r2273 b3065e6

Audio

ID : 2
Format : AC-3
Format/Info : Audio Coding 3
Mode extension : CM (complete main)
Format settings, Endianness : Big
Codec ID : ac-3
Duration : 1h 33mn
Bit rate mode : Constant
Bit rate : 224 Kbps
Channel(s) : 2 channels
Channel positions : Front: L R
Sampling rate : 48.0 KHz
Bit depth : 16 bits
Compression mode : Lossy
Delay relative to video : 80ms
Stream size : 150 MiB (7%)
Title : ac3#trackID=1:lang=en@GPAC0.5.1-DEV-rev4283
Language : English


image



Chattahoochee is a 1989 film directed by Mick Jackson and starring Gary Oldman and Dennis Hopper. The film is based on the real-life experiences of Chris Calhoun, who met screenwriter James Hicks, who then wrote a script based on his internment in a Florida state mental institution. It was turned down by several major studios before being accepted by Hemdale Film Corporation, a small British-owned, Los Angeles-based company that also produced Platoon, Hoosiers, The Last Emperor, and Salvador.

Plot

Emmett Foley (Oldman) is an American hero of the Korean War who attempts to commit suicide, first by provoking local police and then by shooting himself in the chest. After his recovery, he is sent to the Florida State Hospital, an institution in Chattahoochee, Florida, where he fights against doctors and staff who are terrorizing and torturing their patients. His efforts eventually led to sweeping reforms in the Florida mental health system.


image

image image


image

image

Sharing Widget


Download torrent
2.16 GB
seeders:5
leechers:1
Chattahoochee 1989.DVDRip.x264 . NVEE

Trackers

tracker name Status checked seeders leechers downloads
udp://tracker.openbittorrent.com:80/announce
active 29 Mar 2014 2 1 8
udp://tracker.publicbt.com:80/announce
active 29 Mar 2014 5 0 10
http://bt.firebit.org:2710/announce
outdated 03 Sep 2013 - - -
udp://tracker.istole.it:80/announce
outdated 03 Sep 2013 - - -
http://mediastore.in.ua/announce.php
outdated 03 Sep 2013 - - -
udp://tracker.ccc.de:80/announce
outdated 03 Sep 2013 - - -
http://zona-x.tv/announce.php
outdated 03 Sep 2013 - - -
udp://fr33domtracker.h33t.com:3310/announce
deleted 03 Sep 2013 - - -
http://bitfans.3322.org:8000/announce
pending 03 Sep 2013 0 0 0
http://tracker.illbr:6969/announce
pending 03 Sep 2013 0 0 0
ĀµTorrent compatible trackers list

Locations

name author
KickassTorrents .NVEE
Torrent hash: 0B19FBEFDB9B34A24E243952B86C915731B3C43A

All Comments

audio
9/10
video
9/10
please, leave only comments related to that torrent
or sign-in
0
messerschmitt1401 • 12 March 2014, 17:32
torrent downloaded
Show comment
audio: 9video: 9
Thanks to the uploader and the seeders.
0
anonymous • 05 July 2013, 13:33 Show comment
cropped it but it becomes very blurry ???? HELP
0
anonymous • 29 June 2013, 13:56 Show comment
cropping reduced my picture quality, I wouldn"t bother with the crop function
0
anonymous • 27 June 2013, 13:04 Show comment
I like Gary Oldman toothanks also to Nvee the quality is better than average
0
anonymous • 29 May 2013, 12:20 Show comment
Great, Sound is good on this one, and video not bad either, thankyou for the upload
-1
anonymous • 28 May 2013, 20:57 Show comment
audio: 5video: 6
Love it, thanks
-1
anonymous • 28 May 2013, 11:10 Show comment
audio: 1video: 1
Is good
1
FarshadT831 • 24 May 2013, 11:25
torrent downloaded
Show comment
Good movie, great performance by Gary Oldman.. Thanks . NVEE for the upload!!!
-1
anonymous • 25 April 2013, 06:58 Show comment
NVEE WILL BE PROSECUTED
-1
anonymous • 25 April 2013, 06:40 Show comment
NVEE is under investigation for criminal uploading and will be prosecuted under U.S law.
Show More

User Opinions

Report a bug